Форум

Data.BG Форуми: Windows Xp SP2 / SP3 Tips, Tricks, Fixes - Data.BG Форуми

Прехвърляне към съдържание

  • (122 Страници) +
  • « Първа
  • 120
  • 121
  • 122
  • Вие не можете да започнете нова тема
  • Вие не може да отговаряте на тази тема

Windows Xp SP2 / SP3 Tips, Tricks, Fixes

#2421
Потребителят е неактивен   avenge 

  • Група: Потребители
  • Мнения: 1480
  • Регистриран: 07-June 05
  • Репутация: 408
  • Пол:Мъж
  • Град:Шумен
С тази антика на десктопа едвам 2К резолюция можеш да подкараш, (и малко отгоре), а ти искаш 4К видео да пуснеш :D Съмнявам се че тази карта изобщо поддържа хардуерно някакво видео ускорение, освен 3D и bluray/dvd.

https://www.google.c.....0.eKOJRPrFwac
0

#2422
Потребителят е неактивен   CunKajHuj 

  • Група: Потребители
  • Мнения: 23
  • Регистриран: 07-August 18
  • Репутация: 12
  • Пол:Мъж
  • Град:Бургас
Това го гледам без да сече:
General
Complete name : D:\Filmi\Jetman_Dubai.mp4
Format : MPEG-4
Format profile : Base Media
Codec ID : isom
File size : 1.17 GiB
Duration : 11mn 52s
Overall bit rate : 14.1 Mbps
Writing application : Lavf55.33.100

Video
ID : 1
Format : AVC
Format/Info : Advanced Video Codec
Format profile : High@L5.1
Format settings, CABAC : No
Format settings, ReFrames : 2 frames
Codec ID : avc1
Codec ID/Info : Advanced Video Coding
Duration : 11mn 52s
Duration_FirstFrame : -40ms
Bit rate : 13.8 Mbps
Width : 3 840 pixels
Height : 2 160 pixels
Display aspect ratio : 16:9
Frame rate mode : Variable
Frame rate : 25.000 fps
Minimum frame rate : 25.000 fps
Maximum frame rate : 25.014 fps
Color space : YUV
Chroma subsampling : 4:2:0
Bit depth : 8 bits
Scan type : Progressive
Bits/(Pixel*Frame) : 0.067
Stream size : 1.15 GiB (98%)

Audio
ID : 2
Format : AAC
Format/Info : Advanced Audio Codec
Format profile : LC
Codec ID : 40
Duration : 11mn 52s
Bit rate mode : Constant
Bit rate : 254 Kbps
Channel(s) : 2 channels
Channel positions : Front: L R
Sampling rate : 44.1 KHz
Compression mode : Lossy
Stream size : 21.5 MiB (2%)

А това сече, май защото е 30fps:
General
Complete name : D:\Filmi\Panasonic_Lumix_Demo.mp4
Format : MPEG-4
Format profile : Base Media
Codec ID : isom
File size : 418 MiB
Duration : 3mn 7s
Overall bit rate : 18.7 Mbps
Writing application : Lavf54.63.104

Video
ID : 1
Format : AVC
Format/Info : Advanced Video Codec
Format profile : High@L5.1
Format settings, CABAC : No
Format settings, ReFrames : 2 frames
Codec ID : avc1
Codec ID/Info : Advanced Video Coding
Duration : 3mn 7s
Bit rate : 18.6 Mbps
Width : 3 840 pixels
Height : 2 160 pixels
Display aspect ratio : 16:9
Frame rate mode : Constant
Frame rate : 29.970 fps
Color space : YUV
Chroma subsampling : 4:2:0
Bit depth : 8 bits
Scan type : Progressive
Bits/(Pixel*Frame) : 0.075
Stream size : 415 MiB (99%)

Audio
ID : 2
Format : AAC
Format/Info : Advanced Audio Codec
Format profile : LC
Codec ID : 40
Duration : 3mn 7s
Bit rate mode : Constant
Bit rate : 126 Kbps
Channel(s) : 2 channels
Channel positions : Front: L R
Sampling rate : 44.1 KHz
Compression mode : Lossy
Stream size : 2.80 MiB (1%)
0

#2423
Потребителят е неактивен   hardwareMafiaOriginal 

  • Група: Потребители
  • Мнения: 635
  • Регистриран: 04-April 15
  • Репутация: 157
  • Пол:Мъж
  • Град:София

Преглед на мнениеkaspy, на 28.09.18 - 20:44, каза:

E2160 е на 1.8 GHz, освен това на практика всички от тази серия отиват минимум на 250 шина без да се пипа нищо друго, и отивайки по този начин над 2 GHz, съвсем спокойно отнася Windows 7 и декодира FullHD x265 стига да не е на вградено видео. А ако си инсталираш версията на Windows 7 на Иван Кехайов (много олекотена и почти напълно функционална, тази машина ще работи по-добре, отколкото с XP - личен опит). Дистрибуцията се инсталира на около 3 GB свободно пространство и даже носи още оптимизации. Стандартно работи и заема по-малко памет от ХП - между 300 и 500 МБ в зависимост от драйверите, system cache и естествено - общата памет. С твоите 3 GB RAM просто нямаш никакви проблеми. Пробвал съм я на 512МБ - работи чудесно, но не стига за приложения. 1 ГБ е достатъчен, а с два можеш да си пуснеш на практика всичко.
Ако си с късметлийска бройка, този процесор отива на 3 GHz и конфигурацията става от съвсем различен тип.



дам с Е2140 съм извинявам се.. за невежеството ми. дам с вградено видео съм.

Това ми е машината за интернет за да не ми шпионират основната база дани с там.. Теча на процесорите в кернела.

Мнението беше редактирано от hardwareMafiaOriginal: 03.10.18 - 18:13

CPU: Xeon 771 L5408 L-12 2.13GHz
Ram: 3GB DDR2(667), MB: Asus HP Ipibl benicia
PCI-E: Wireless 150Mbps,
PSU: Fortron 300W Mini Gold
HDD:300GB Raptor 10-000RPM Sata-2
PCI Creative SB0460, Win7 x64 Home Premium

Цитат:(CraftyFox1 week ago haha so basically every single selfie with the iphone is fake hahaha love it)
0

#2424
Потребителят е неактивен   sh4tr 

  • Група: Потребители
  • Мнения: 575
  • Регистриран: 03-July 13
  • Репутация: 111
  • Пол:Мъж

Преглед на мнениеCunKajHuj, на 29.09.18 - 01:03, каза:

Значи с туй ATI Radeon HD 2600 Pro, дето го имам не става. Трябва друго.

става за h264

Преглед на мнениеCunKajHuj, на 28.09.18 - 23:43, каза:

какво трябва да имам на WinXP, за да гледам x.265 FHD и x.264 UHD филмчета без да насичат? Външната карта колко да е мощна? Core2 Duo E6700 имам.

h264 > hardware decoding, може би vdpau, виж vlc
h265 няма, пробвай с 1080p

Преглед на мнениеavenge, на 29.09.18 - 01:15, каза:

С тази антика на десктопа едвам 2К резолюция можеш да подкараш, (и малко отгоре), а ти искаш 4К видео да пуснеш :D Съмнявам се че тази карта изобщо поддържа хардуерно някакво видео ускорение, освен 3D и bluray/dvd.

тая антика спокойно си подкарва 2К резолюция

Мнението беше редактирано от sh4tr: 11.02.19 - 09:49

1

Споделете тази тема чрез:


  • (122 Страници) +
  • « Първа
  • 120
  • 121
  • 122
  • Вие не можете да започнете нова тема
  • Вие не може да отговаряте на тази тема

1 потребители четат тази тема
0 регистрирани потребители, 1 гости и 0 анонимни потребители


Data.BG e форум за дискусии. Data.BG не носи отговорност за съдържанието и достоверността на публикуваните в дискусиите материали.

Никаква част от съдържанието на тази страница не може да бъде репродуцирана, записвана или предавана под каквато и да е форма или по какъвто и да е повод без писменото съгласие на Data.BG.

Close  Member Login